[喵萌奶茶屋&千夏字幕组&LoliHouse] 捏造陷阱-NTR- / Netsuzou Trap: NTR [BDRip 1080p HEVC-10bit FLAC][Reseed]

种子详情

发布时间: 2021/10/05 21:50
文件大小: 3.4GB

简介: 

Poster

捏造陷阱-NTR- / Netsuzou Trap: NTR / 捏造トラップ-NTR-


Reseed说明

增补第一弹PV

增补扫图

修正第一话字幕

正片无改动


字幕:喵萌奶茶屋&千夏字幕组

压制:见崎かすみ@LoliHouse

本片与喵萌奶茶屋&千夏字幕组合作,感谢字幕组的辛勤劳动


原盘画质很差。线条很烂。色度平面非常烂。肉眼可见的烂线&色度烂线&色度溢出。平面很烂。大量的色块和色带。这已经不是一般的烂了,必须出重拳!我进行了深度学习线条修复,色度收线&抗锯齿,去色带,引导锐化,k函数降噪。


English: The original source is bad. The lines are like rotten rice noodles. The chroma planes are badly encoded. There are very obvious bad chroma lines and chroma bleeding. The flat areas are also bad. There are blocking and banding. Given this, I did deep learning lineplay, warping, anti-aliasing, debanding, guided sharpening, and adaptive denoising.

MediaInfo

General
Unique ID                                : 30560080490139379499188233611651195863 (0x16FDA84C252F5278DDF1FE274F0E23D7)
Complete name                            : W:\[Nekomoe kissaten&Airota&LoliHouse] Netsuzou Trap - NTR [BDRip 1080p HEVC-10bit FLAC]\[Nekomoe kissaten&Airota&LoliHouse] Netsuzou Trap - NTR - 01 [BDRip 1080p HEVC-10bit FLAC].mkv
Format                                   : Matroska
Format version                           : Version 4
File size                                : 209 MiB
Duration                                 : 9 min 1 s
Overall bit rate mode                    : Variable
Overall bit rate                         : 3 235 kb/s
Movie name                               : trap:1「女の子同士のヒミツ」
Encoded date                             : UTC 2021-09-10 06:26:11
Writing application                      : mkvmerge v60.0.0 ('Are We Copies?') 64-bit
Writing library                          : libebml v1.4.2 + libmatroska v1.6.4
Video
ID                                       : 1
Format                                   : HEVC
Format/Info                              : High Efficiency Video Coding
Format profile                           : Main 10@L4@Main
Codec ID                                 : V_MPEGH/ISO/HEVC
Duration                                 : 9 min 0 s
Bit rate                                 : 2 581 kb/s
Width                                    : 1 920 pixels
Height                                   : 1 080 pixels
Display aspect ratio                     : 16:9
Frame rate mode                          : Constant
Frame rate                               : 23.976 (24000/1001) FPS
Color space                              : YUV
Chroma subsampling                       : 4:2:0
Bit depth                                : 10 bits
Bits/(Pixel*Frame)                       : 0.052
Stream size                              : 166 MiB (80%)
Writing library                          : x265 3.5g2b25c9ba0+45:[Windows][GCC 10.2.0][64 bit] Yuuki 10bit+8bit+12bit
Encoding settings                        : rc=crf / crf=14.0000 / qcomp=0.60 / qpstep=4 / stats-write=0 / stats-read=0 / no-lossless / no-cu-lossless / aq-mode=1 / aq-strength=1.00 / cbqpoffs=-2 / crqpoffs=-2 / ipratio=1.40 / pbratio=1.20 / psy-rd=1.60 / psy-rdoq=0.60 / deblock=-1:-1 / ref=5 / limit-refs=0 / no-limit-modes / bframes=8 / b-adapt=2 / bframe-bias=0 / b-pyramid / b-intra / weightp / weightb / min-keyint=1 / max-keyint=360 / rc-lookahead=80 / gop-lookahead=0 / scenecut=40 / hist-scenecut=0 / radl=0 / max-cu-size=32 / min-cu-size=8 / me=3 / subme=5 / merange=42 / rdoq-level=1 / rd=6 / rdpenalty=0 / dynamic-rd=0.00 / rd-refine / ----- / cutree / no-sao / no-rect / no-amp / no-open-gop / wpp / no-pmode / no-pme / no-psnr / no-ssim / nr-intra=0 / nr-inter=0 / no-constrained-intra / no-h2-intra-smoothing / max-tu-size=32 / tu-inter-depth=3 / tu-intra-depth=3 / limit-tu=0 / qg-size=16 / qpmax=69 / qpmin=0 / ----- / cpuid=1111039 / frame-threads=1 / numa-pools=16 / log-level=2 / input-csp=1 / input-res=1920x1080 / interlace=0 / level-idc=0 / high-tier=1 / uhd-bd=0 / no-allow-non-conformance / no-repeat-headers / no-aud / no-hrd / info / hash=0 / no-temporal-layers / lookahead-slices=0 / no-splice / no-intra-refresh / no-ssim-rd / signhide / no-tskip / max-merge=5 / temporal-mvp / no-frame-dup / no-hme / no-analyze-src-pics / no-sao-non-deblock / selective-sao=0 / no-early-skip / rskip / no-fast-intra / no-tskip-fast / no-splitrd-skip / zone-count=0 / no-strict-cbr / no-rc-grain / no-const-vbv / sar=0 / overscan=0 / videoformat=5 / range=0 / colorprim=1 / transfer=1 / colormatrix=1 / chromaloc=0 / display-window=0 / cll=0,0 / min-luma=0 / max-luma=1023 / log2-max-poc-lsb=8 / vui-timing-info / vui-hrd-info / slices=1 / no-opt-qp-pps / no-opt-ref-list-length-pps / no-multi-pass-opt-rps / scenecut-bias=0.05 / hist-threshold=0.03 / no-opt-cu-delta-qp / no-aq-motion / no-hdr10 / no-hdr10-opt / no-dhdr10-opt / no-idr-recovery-sei / analysis-reuse-level=0 / analysis-save-reuse-level=0 / analysis-load-reuse-level=0 / scale-factor=0 / refine-intra=0 / refine-inter=0 / refine-mv=1 / refine-ctu-distortion=0 / no-limit-sao / ctu-info=0 / no-lowpass-dct / refine-analysis-type=0 / copy-pic=1 / max-ausize-factor=1.0 / no-dynamic-refine / no-single-sei / no-hevc-aq / no-svt / no-field / qp-adaptation-range=1.00 / scenecut-aware-qp=0conformance-window-offsets / right=0 / bottom=0 / decoder-max-rate=0 / no-vbv-live-multi-pass
Default                                  : Yes
Forced                                   : No
Color range                              : Limited
Color primaries                          : BT.709
Transfer characteristics                 : BT.709
Matrix coefficients                      : BT.709
Audio
ID                                       : 2
Format                                   : FLAC
Format/Info                              : Free Lossless Audio Codec
Codec ID                                 : A_FLAC
Duration                                 : 9 min 1 s
Bit rate mode                            : Variable
Bit rate                                 : 652 kb/s
Channel(s)                               : 2 channels
Channel layout                           : L R
Sampling rate                            : 48.0 kHz
Frame rate                               : 11.719 FPS (4096 SPF)
Bit depth                                : 16 bits
Compression mode                         : Lossless
Stream size                              : 42.1 MiB (20%)
Writing library                          : libFLAC 1.3.2 (UTC 2017-01-01)
Language                                 : Japanese
Default                                  : Yes
Forced                                   : No
Menu
00:00:00.000                             : Chapter 01
00:01:50.444                             : Chapter 02
00:03:18.365                             : Chapter 03
00:08:24.671                             : Chapter 04
00:08:54.951                             : Chapter 05

Readme about JXL

附带的图片使用JPEG XL编码。JPEG XL是次时代的图片编码格式。你可以使用新版的 ImageGlass或XnViewMP来预览。

The attached images are encoded in the format of JPEG XL. JPEG XL is the next-generation image format. You can use latest ImageGlass or XnViewMP to view them.

Screenshots

由于此番剧是R15,截图中可能包含不适合工作场所预览的内容!

Because this anime is R15, the screenshots below may contain NSFW content!

Comparison
Source______________________________Encode_____________________________
https://sm.ms/image/CTFGxYp4q6knzdE https://sm.ms/image/RauXYiL2xWNgf9G
https://sm.ms/image/yJrmYFoug9eBSOA https://sm.ms/image/lE6AvdhV5PqJoCf
https://sm.ms/image/9ufYpxjr3bkidGl https://sm.ms/image/3xOYuZPh2lTpD5m
https://sm.ms/image/wBTRH8UPOaN6VFu https://sm.ms/image/MeEDqH5z1YN3lK6
https://sm.ms/image/gPUm43Q87LMAupD https://sm.ms/image/fMPOA5J4amz1T3j

给TA买糖
共{{data.count}}人
人已赞赏
动漫下载

[c.c动漫][4月新番][东京复仇者][00-24][合集][BIG5][1080P][MP4]

2021-9-30 14:50:23

动漫下载

[LoliHouse] 小森拒不了! / Komori-san wa Kotowarenai! [BDRip 1080p HEVC-10bit FLAC]

2021-10-7 1:12:16

资源下载说明

使用百度网盘下载资源,请不要在线解压!

1、请记住本站永久网址发布页(回家路):www.ecyzj.com,TG群:t.me/ccygfq
2、本站资源大多存储在云盘,如发现链接失效请在下方评论留言,作者看到后会第一时间更新补链。
3、百度网盘分享失效的,请使用萌云盘下载!
4、关于解压密码错误或者资源损坏,请查看解压教程:[必看]关于手机解压教程及常见问题
5、如果有资源想投稿的会员请仔细阅读:投稿指南教程
6、本站大部分资源解压密码均为: 资源发布于超次元www.ecyzj.com 如密码有误,请查看原帖的资源说明!

0 条回复 A文章作者 M管理员
    暂无讨论,说说你的看法吧
个人中心
今日签到
有新私信 私信列表
搜索