[1985-1986] 蒙面斗士 / Mobile Armored Strike Kommand Aka M.A.S.K / 仮面闘士 (TV01-75Fin+Movie 480p AVC AAC Eng-Sub)

种子详情

发布时间: 2021/08/26 19:08
文件大小: 26.2GB

简介: 

 

蒙面斗士 M.A.S.K.: Mobile Armored Strike Kommand

[1985-1986] 蒙面斗士 / Mobile Armored Strike Kommand Aka M.A.S.K / 仮面闘士 (TV01-75Fin+Movie 480p AVC AAC Eng-Sub)

 

M.A.S.K  TV Series (1985-1986) 

 

Storyline

 

After the death of his teenage brother Andy, multi-millionaire Matt Trakker uncovers an international criminal organization known as V.E.N.O.M. (Vicious Evil Network Of Mayhem).

Trakker gathers a group of friends who, like himself, possess extraordinary talents and creates M.A.S.K. (Mobile Armoured Strike Kommand).

Their objective; to destroy V.E.N.O.M. and its mastermind – Miles Mayhem, the man responsible for Andy’s death. 

 

General

 

Format                                   : MPEG-4

Format profile                           : Base Media / Version 2

Codec ID                                 : mp42 (isom/iso2/avc1/mp41)

Overall bit rate mode                    : Variable

Overall bit rate                         : 2 199 kb/s

Encoded date                             : UTC 2016-11-02 19:42:23

Tagged date                              : UTC 2016-11-02 19:42:23

Writing application                      : HandBrake 0.10.5 2016021100

 

Video

ID                                       : 1

Format                                   : AVC

Format/Info                              : Advanced Video Codec

Format profile                           : Main@L4

Format settings, CABAC                   : Yes

Format settings, ReFrames                : 4 frames

Codec ID                                 : avc1

Codec ID/Info                            : Advanced Video Coding

Bit rate                                 : 2 000 kb/s

Width                                    : 640 pixels

Height                                   : 480 pixels

Display aspect ratio                     : 4:3

Frame rate mode                          : Constant

Frame rate                               : 25.000 FPS

Color space                              : YUV

Chroma subsampling                       : 4:2:0

Bit depth                                : 8 bits

Scan type                                : Progressive

Bits/(Pixel*Frame)                       : 0.260

Stream size                              : 318 MiB (91%)

Writing library                          : x264 core 142 r2479 dd79a61

Encoding settings                        : cabac=1 / ref=1 / deblock=1:0:0 / analyse=0x1:0x111 / me=hex / subme=2 / psy=1 / psy_rd=1.00:0.00 / mixed_ref=0 / me_range=16 / chroma_me=1 / trellis=0 / 8x8dct=0 / cqm=0 / deadzone=21,11 / fast_pskip=1 / chroma_qp_offset=0 / threads=12 / lookahead_threads=3 / sliced_threads=0 / nr=0 / decimate=1 / interlaced=0 / bluray_compat=0 / constrained_intra=0 / bframes=3 / b_pyramid=2 / b_adapt=1 / b_bias=0 / direct=1 / weightb=1 / open_gop=0 / weightp=1 / keyint=250 / keyint_min=25 / scenecut=40 / intra_refresh=0 / rc_lookahead=10 / rc=2pass / mbtree=1 / bitrate=2000 / ratetol=1.0 / qcomp=0.60 / qpmin=0 / qpmax=69 / qpstep=4 / cplxblur=20.0 / qblur=0.5 / vbv_maxrate=20000 / vbv_bufsize=25000 / nal_hrd=none / filler=0 / ip_ratio=1.40 / aq=1:1.00

Encoded date                             : UTC 2016-11-02 19:42:23

Tagged date                              : UTC 2016-11-02 19:42:23

Color range                              : Limited

Color primaries                          : BT.601 PAL

Transfer characteristics                 : BT.709

Matrix coefficients                      : BT.601

 

Audio

ID                                       : 2

Format                                   : AAC

Format/Info                              : Advanced Audio Codec

Format profile                           : LC

Codec ID                                 : 40

Bit rate mode                            : Variable

Bit rate                                 : 192 kb/s

Channel(s)                               : 2 channels

Channel positions                        : Front: L R

Sampling rate                            : 48.0 kHz

Frame rate                               : 46.875 FPS (1024 spf)

Compression mode                         : Lossy

Stream size                              : 30.6 MiB (9%)

Title                                    : Stereo / Stereo

Default                                  : Yes

Alternate group                          : 1

Encoded date                             : UTC 2016-11-02 19:42:23

Tagged date                              : UTC 2016-11-02 19:42:23

 

给TA买糖
共{{data.count}}人
人已赞赏
动漫下载

怪盗 セイント・テール Kaitou Saint Tail Chinese 圣少女 内地上视+港配 国粤配音版

2021-8-28 16:50:53

动漫下载

【豌豆字幕组】★剧场版[银魂 THE FINAL][MOVIE+SP][1080P][HEVC_Ma10P][简繁外挂][MKV][v2]

2021-8-28 16:51:05

资源下载说明

使用百度网盘下载资源,请不要在线解压!

1、请记住本站永久网址发布页(回家路):www.ecyzj.com,TG群:t.me/ccygfq
2、本站资源大多存储在云盘,如发现链接失效请在下方评论留言,作者看到后会第一时间更新补链。
3、百度网盘分享失效的,请使用萌云盘下载!
4、关于解压密码错误或者资源损坏,请查看解压教程:[必看]关于手机解压教程及常见问题
5、如果有资源想投稿的会员请仔细阅读:投稿指南教程
6、本站大部分资源解压密码均为: 资源发布于超次元www.ecyzj.com 如密码有误,请查看原帖的资源说明!

0 条回复 A文章作者 M管理员
    暂无讨论,说说你的看法吧
个人中心
今日签到
有新私信 私信列表
搜索